best of deep House 2018 to beach bars of GREECE ios,mykonos,paros,naxos,crete,kos,Zakynthos,Athens,

[an error occurred while processing the directive]

Спасибо! Поделитесь с друзьями!

Вам не понравилось видео. Спасибо за то что поделились своим мнением!

Добавлено by admin
195 Просмотры
best of deep House 2018 BOB DEEP to beach bars of GREECE ios,mykonos,paros,naxos,crete,kos,Rhodes, Thassos, Tinos, Zakynthos,Athens, Chalkis, Halkidiki photo Nicole-Mejia

PERFORMER \"TOP DJS MIX\"
TITLE BEST OF DH 2018 V1\"
FILE \"BOB DEEP.mp3\" MP3
TRACK 01 AUDIO
TITLE \"My Love\"
PERFORMER \"01 Route 94\"
INDEX 01 00:00:00
TRACK 02 AUDIO
TITLE \"Moonlight\"
PERFORMER \"02 Groove Pressure\"
INDEX 01 04:29:00
TRACK 03 AUDIO
TITLE \"World\"
PERFORMER \"03 Murat Uyar feat. Semiramis Talita\"
INDEX 01 08:56:00
TRACK 04 AUDIO
TITLE \"Stumblin\' In - YouTube\"
PERFORMER \"04 Ahmet Kilic Stoto feat. Adeba\"
INDEX 01 12:07:00
TRACK 05 AUDIO
TITLE \"Be My Lover\"
PERFORMER \"05 Anton Ishutin feat. Note U\"
INDEX 01 17:01:00
TRACK 06 AUDIO
TITLE \"Be With Me - YouTube\"
PERFORMER \"06 Pascal Letoublon\"
INDEX 01 20:04:00
TRACK 07 AUDIO
TITLE \"Sober\"
PERFORMER \"07 Cat Dealers, Santti Ft. Souza\'\"
INDEX 01 23:36:00
TRACK 08 AUDIO
TITLE \"Sunbeams - YouTube\"
PERFORMER \"08 Fabrizio Parisi MiYan Feat. Belonoga\"
INDEX 01 27:45:00
TRACK 09 AUDIO
TITLE \"Nani Ja - YouTube\"
PERFORMER \"09 Armen Miran\"
INDEX 01 31:01:00
TRACK 10 AUDIO
TITLE \"I Can`t Stop\"
PERFORMER \"10 Flashtronica\"
INDEX 01 36:27:00
TRACK 11 AUDIO
TITLE \"Am I Wrong - YouTube\"
PERFORMER \"11 Ahmet Kilic Ilkay Sencan\"
INDEX 01 40:08:00
TRACK 12 AUDIO
TITLE \"U Don`t Know\"
PERFORMER \"12 Justine Skye\"
INDEX 01 44:11:00
TRACK 13 AUDIO
TITLE \"The Way It Is\"
PERFORMER \"13 Midi Culture\"
INDEX 01 48:55:00
TRACK 14 AUDIO
TITLE \"All Right (Lee Pearce Remix)\"
PERFORMER \"14 Alex Ranerro\"
INDEX 01 52:56:00
TRACK 15 AUDIO
TITLE \"Let the Fire - YouTube\"
PERFORMER \"15 Block Crown\"
INDEX 01 57:55:00
Категория
Музыка
Теги
музыка, музыка онлайн, best of deep House 2018 to beach bars of GREECE ios, mykonos, paros, naxos, kos, Zakynthos, Athens

Написать комментарий

Комментарии

Комментариев нет.
[an error occurred while processing the directive]